<?xml version="1.0" standalone="no"?>
<!DOCTYPE svg PUBLIC "-//W3C//DTD SVG 1.1//EN" "http://www.w3.org/Graphics/SVG/1.1/DTD/svg11.dtd" >
<svg xmlns="http://www.w3.org/2000/svg">
  <metadata>Created by iconfont</metadata>
  <defs>
  <font id="zy-icon" horiz-adv-x="1024">
    <font-face
      font-family="zy-icon"
      font-weight="400"
      font-stretch="normal"
      units-per-em="1024"
      ascent="896"
      descent="-128"
    />
      <missing-glyph />
      
      <glyph glyph-name="a-lightning16" unicode="&#58881;" d="M721.92 496.64H604.16l51.2 189.44h-256l-97.28-348.16h153.6l-40.96-256z"  horiz-adv-x="1024" />
      
      <glyph glyph-name="a-edit20" unicode="&#58880;" d="M798.72 481.28v-384H225.28V670.72h384v76.8h-460.8v-727.04h727.04v460.8zM440.32 312.32l66.56 10.24L870.4 686.08l-56.32 56.32-363.52-363.52z"  horiz-adv-x="1024" />
      
      <glyph glyph-name="a-cash24" unicode="&#59064;" d="M392.533333 448c0-17.066667 12.8-34.133333 34.133334-34.133333h51.2V477.866667H426.666667c-17.066667 0-34.133333-12.8-34.133334-29.866667zM512 844.8C260.266667 844.8 51.2 635.733333 51.2 384S260.266667-76.8 512-76.8 972.8 128 972.8 384 763.733333 844.8 512 844.8z m85.333333-622.933333h-51.2V128h-64v93.866667H362.666667v64h119.466666v64H426.666667c-51.2 0-93.866667 42.666667-93.866667 93.866666s42.666667 93.866667 93.866667 93.866667h51.2V640h64v-93.866667h119.466666v-64h-119.466666v-64H597.333333c51.2 0 93.866667-42.666667 93.866667-93.866666s-42.666667-102.4-93.866667-102.4zM597.333333 349.866667h-51.2v-64H597.333333c17.066667 0 34.133333 12.8 34.133334 34.133333s-17.066667 29.866667-34.133334 29.866667z"  horiz-adv-x="1024" />
      
      <glyph glyph-name="a-creditcard24" unicode="&#59065;" d="M93.866667 759.466667h832v-213.333334H93.866667zM93.866667 8.533333h832v469.333334H93.866667v-469.333334z m426.666666 238.933334h234.666667v-64h-234.666667v64z"  horiz-adv-x="1024" />
      
      <glyph glyph-name="a-delete16" unicode="&#59066;" d="M371.2 480h96v-300.8H371.2zM563.2 480h96v-300.8H563.2zM896 697.6h-204.8l-44.8 108.8H371.2l-38.4-108.8H128v-96h38.4v-640h691.2v640h38.4V697.6z m-460.8 12.8h147.2l6.4-12.8H435.2v12.8z m326.4-652.8H262.4V601.6h499.2v-544z"  horiz-adv-x="1024" />
      
      <glyph glyph-name="a-gouxuan16" unicode="&#59067;" d="M896 572.8l-488.96-469.76L128 378.88l89.6 91.52 192-192 401.28 384z"  horiz-adv-x="1024" />
      
      <glyph glyph-name="collection" unicode="&#59048;" d="M758.613333 618.666667a170.666667 170.666667 0 0 1-128 48.213333A170.666667 170.666667 0 0 1 512 613.973333a174.506667 174.506667 0 0 1-245.76 5.12 192.426667 192.426667 0 0 1 0-264.106666l115.2-119.04L512 100.26666699999998l131.413333 135.253333 114.773334 119.04a192.426667 192.426667 0 0 1 0.426666 264.106667z"  horiz-adv-x="1024" />
      
      <glyph glyph-name="add16" unicode="&#59044;" d="M552.96 424.96V588.8H471.04v-163.84H307.2v-81.92h163.84V179.20000000000005h81.92v163.84H716.8V424.96z"  horiz-adv-x="1024" />
      
      <glyph glyph-name="collectionline" unicode="&#59045;" d="M768 628.0533330000001a183.466667 183.466667 0 0 1-253.013333 0 183.893333 183.893333 0 0 1-253.013334 0 202.24 202.24 0 0 1 0-278.186666l115.2-119.466667L512 85.33333300000004l139.093333 142.933334L768 349.44000000000005a203.093333 203.093333 0 0 1 0 278.613333z m-46.506667-234.24l-114.773333-119.04L512 179.20000000000005l-93.013333 95.146667-114.773334 119.04a138.666667 138.666667 0 0 0 0 189.866666 121.173333 121.173333 0 0 0 89.6 32.853334 119.893333 119.893333 0 0 0 85.333334-42.666667l32.426666-32 32 32.853333a119.893333 119.893333 0 0 0 85.333334 42.666667 121.173333 121.173333 0 0 0 89.6-32.853333 138.666667 138.666667 0 0 0 1.28-190.293334z"  horiz-adv-x="1024" />
      
      <glyph glyph-name="reduce" unicode="&#59046;" d="M307.2 424.96h409.6v-76.8H307.2z"  horiz-adv-x="1024" />
      
      <glyph glyph-name="kaquan" unicode="&#59047;" d="M824.32 460.8l10.24 10.24v204.8H189.44v-199.68l10.24-5.12c25.6-20.48 46.08-51.2 46.08-87.04s-15.36-66.56-46.08-81.92l-10.24-5.12v-199.68h650.24v204.8l-10.24 10.24c-20.48 20.48-35.84 46.08-35.84 76.8s10.24 56.32 30.72 71.68zM373.76 486.4h204.8v-51.2h-204.8V486.4z m276.48-204.8H373.76v51.2h271.36v-51.2z"  horiz-adv-x="1024" />
      
      <glyph glyph-name="staryellow" unicode="&#59049;" d="M993.28 491.52l-332.8 51.2L512 839.68 363.52 542.72l-332.8-51.2 240.64-235.52-56.32-327.68 296.96 153.6 296.96-153.6-56.32 327.68z"  horiz-adv-x="1024" />
      
      <glyph glyph-name="hasse" unicode="&#59050;" d="M778.24 706.56H245.76L194.56 537.6v-481.28h640V537.6l-56.32 168.96z m-56.32-76.8l20.48-61.44h-460.8l20.48 61.44h419.84z m-455.68-491.52v358.4h486.4v-358.4H266.24zM517.12 399.36l-51.2 51.2-138.24-133.12L465.92 179.20000000000005l51.2 56.32-40.96 40.96h163.84v76.8H476.16z"  horiz-adv-x="1024" />
      
      <glyph glyph-name="shipping" unicode="&#59052;" d="M849.92 517.12l-158.72 56.32V686.08h-512v-542.72h97.28c15.36-40.96 56.32-66.56 102.4-66.56s87.04 30.72 102.4 66.56h76.8c15.36-40.96 56.32-66.56 102.4-66.56 46.08 0 87.04 30.72 102.4 66.56h97.28V517.12z m-476.16-358.4c-15.36 0-30.72 15.36-30.72 30.72s15.36 30.72 30.72 30.72 30.72-15.36 30.72-30.72-15.36-30.72-30.72-30.72z m276.48 0c-15.36 0-30.72 15.36-30.72 30.72s15.36 30.72 30.72 30.72 30.72-15.36 30.72-30.72-15.36-30.72-30.72-30.72z m122.88 66.56h-20.48c-15.36 40.96-56.32 66.56-102.4 66.56-46.08 0-87.04-30.72-102.4-66.56H476.16c-15.36 40.96-56.32 66.56-102.4 66.56-46.08 0-87.04-30.72-102.4-66.56h-20.48V609.28h358.4v-240.64h76.8V491.52l81.92-30.72v-235.52z"  horiz-adv-x="1024" />
      
      <glyph glyph-name="close" unicode="&#59053;" d="M819.626667 625.493333l-60.586667 60.16L512 438.613333 264.96 685.653333 204.373333 625.493333l247.466667-247.466666-235.52-235.52 60.16-60.16L512 317.866667l235.52-235.52 60.16 60.16-235.52 235.52 247.466667 247.466666z"  horiz-adv-x="1024" />
      
      <glyph glyph-name="signemail" unicode="&#59054;" d="M928 736h-832v-704h832zM512 448l290.56 224h64V640L512 364.79999999999995 160 640v32h64z"  horiz-adv-x="1024" />
      
      <glyph glyph-name="signphone" unicode="&#59055;" d="M181.12 821.12v-874.24h661.76V821.12z m416-768H426.88v64h170.24z m117.76 128H309.12V672h405.76z"  horiz-adv-x="1024" />
      
      <glyph glyph-name="signeyesyincang" unicode="&#59056;" d="M903.68 300.79999999999995l77.44 55.68-78.08 108.8a672 672 0 0 1 39.04 64 273.28 273.28 0 0 1 17.92 39.04l3.2 7.68-46.08 15.36-45.44 14.72s0-3.84-3.2-7.68a305.92 305.92 0 0 0-13.44-30.08 468.48 468.48 0 0 0-64-92.8A357.12 357.12 0 0 0 512 350.08000000000004a358.4 358.4 0 0 0-282.88 128A498.56 498.56 0 0 0 168.32 576a305.92 305.92 0 0 0-13.44 30.08 55.68 55.68 0 0 1 0 7.68l-45.44-14.72-45.44-15.36v-15.36a384 384 0 0 1 16.64-37.12 561.92 561.92 0 0 1 39.04-64L42.88 356.48l77.44-55.68 64 88.32a453.76 453.76 0 0 1 152.96-101.76l-45.44-90.24 86.4-42.88 53.12 106.88A541.44 541.44 0 0 1 512 256a459.52 459.52 0 0 1 80 7.04l53.12-106.88 86.4 42.88-45.44 89.6a459.52 459.52 0 0 1 152.96 101.76z"  horiz-adv-x="1024" />
      
      <glyph glyph-name="signeyes" unicode="&#59063;" d="M576 360.32000000000005A87.04 87.04 0 0 0 488.32 448a85.76 85.76 0 0 0 59.52 81.92A134.4 134.4 0 0 1 512 533.76 149.76 149.76 0 1 1 661.76 384a134.4 134.4 0 0 1-4.48 35.84A85.76 85.76 0 0 0 576 360.32000000000005zM512 730.88A462.08 462.08 0 0 1 64 384a462.72 462.72 0 0 1 896 0 462.08 462.08 0 0 1-448 346.88z m0-597.76A367.36 367.36 0 0 0 163.84 384a366.72 366.72 0 0 0 696.32 0A367.36 367.36 0 0 0 512 133.12z"  horiz-adv-x="1024" />
      
      <glyph glyph-name="arrow_up" unicode="&#59057;" d="M288 563.84L512 339.84l224 224 67.84-67.84L512 204.16 220.16 496z"  horiz-adv-x="1024" />
      
      <glyph glyph-name="left" unicode="&#59058;" d="M794.24 768L704 858.24 229.76 384 704-90.24000000000001 794.24 0l-384 384 384 384z"  horiz-adv-x="1024" />
      
      <glyph glyph-name="me" unicode="&#59059;" d="M512 394.666667A202.666667 202.666667 0 1 1 309.333333 597.333333 202.666667 202.666667 0 0 1 512 394.666667z m0 341.333333A138.666667 138.666667 0 1 0 373.333333 597.333333 139.093333 139.093333 0 0 0 512 736zM884.48 156.586667A202.666667 202.666667 0 0 1 682.666667 330.666667H341.333333a202.666667 202.666667 0 0 1-200.533333-174.08l-26.88-188.586667h797.44zM186.026667 32l16.64 115.626667A138.666667 138.666667 0 0 0 341.333333 266.666667h341.333334a138.666667 138.666667 0 0 0 137.386666-119.04l16.64-115.626667z"  horiz-adv-x="1024" />
      
      <glyph glyph-name="bag" unicode="&#59060;" d="M919.466667 597.333333a32.426667 32.426667 0 0 1-23.466667 10.666667h-181.333333V768a32.426667 32.426667 0 0 1-32 32H341.333333a32.426667 32.426667 0 0 1-32-32v-160H128a32.426667 32.426667 0 0 1-23.466667-10.666667 33.28 33.28 0 0 1-8.533333-24.32l42.666667-576a32 32 0 0 1 32-29.44h682.666666a32 32 0 0 1 32 29.44l42.666667 576a33.28 33.28 0 0 1-8.533333 24.32zM373.333333 736h277.333334v-128h-277.333334z m450.133334-704H200.533333l-37.973333 512h146.773333V490.666667a32 32 0 0 1 64 0V544h277.333334V490.666667a32 32 0 0 1 64 0V544h146.773333z"  horiz-adv-x="1024" />
      
      <glyph glyph-name="service_bag" unicode="&#59061;" d="M928 161.706667V384A410.88 410.88 0 0 1 512 789.333333 410.88 410.88 0 0 1 96 384v-404.053333h256v256h-192V384A346.453333 346.453333 0 0 0 512 725.333333a346.453333 346.453333 0 0 0 352-341.333333v-148.906667h-193.28v-256h256v182.186667zM289.28 170.666667v-128h-128v128z m445.44-128v128H853.333333a10.666667 10.666667 0 0 0 10.666667-10.666667V42.666667z"  horiz-adv-x="1024" />
      
      <glyph glyph-name="menu_bag" unicode="&#59062;" d="M199.68 423.68a52.48 52.48 0 0 1-18.346667 11.946667 55.466667 55.466667 0 0 1-42.666666 0 56.32 56.32 0 0 1-18.346667-91.306667 52.48 52.48 0 0 1 18.346667-11.946667 55.466667 55.466667 0 0 1 42.666666 0 56.32 56.32 0 0 1 18.346667 91.306667zM199.68 139.52a60.586667 60.586667 0 0 1-18.346667 12.373333 61.44 61.44 0 0 1-21.333333 4.266667 61.44 61.44 0 0 1-21.333333-4.266667 60.586667 60.586667 0 0 1-18.346667-12.373333 50.773333 50.773333 0 0 1-11.946667-17.92 53.333333 53.333333 0 0 1-4.266666-21.76 52.906667 52.906667 0 0 1 4.266666-21.333333 50.773333 50.773333 0 0 1 11.946667-17.92 53.76 53.76 0 0 1 18.346667-12.373334 61.44 61.44 0 0 1 21.333333-4.266666 61.44 61.44 0 0 1 21.333333 4.266666 53.76 53.76 0 0 1 18.346667 12.373334 50.773333 50.773333 0 0 1 13.653333 17.92 52.906667 52.906667 0 0 1 4.266667 21.333333 53.333333 53.333333 0 0 1-4.266667 21.76 50.773333 50.773333 0 0 1-13.653333 17.92zM199.68 707.413333a53.76 53.76 0 0 1-18.346667 12.373334 61.44 61.44 0 0 1-21.333333 4.266666 61.44 61.44 0 0 1-21.333333-4.266666 53.76 53.76 0 0 1-18.346667-12.373334 50.773333 50.773333 0 0 1-11.946667-17.92 52.906667 52.906667 0 0 1-4.266666-21.333333 53.333333 53.333333 0 0 1 4.266666-21.76 50.773333 50.773333 0 0 1 11.946667-17.92 60.586667 60.586667 0 0 1 18.346667-12.373333 61.44 61.44 0 0 1 21.333333-4.266667 61.44 61.44 0 0 1 21.333333 4.266667 60.586667 60.586667 0 0 1 18.346667 12.373333A50.773333 50.773333 0 0 1 213.333333 646.4a53.333333 53.333333 0 0 1 4.266667 21.76 52.906667 52.906667 0 0 1-4.266667 21.333333 50.773333 50.773333 0 0 1-13.653333 17.92zM320 704m8.106667 0l583.68 0q8.106667 0 8.106666-8.106667l0-55.893333q0-8.106667-8.106666-8.106667l-583.68 0q-8.106667 0-8.106667 8.106667l0 55.893333q0 8.106667 8.106667 8.106667ZM320 136.106667m8.106667 0l583.68 0q8.106667 0 8.106666-8.106667l0-55.893333q0-8.106667-8.106666-8.106667l-583.68 0q-8.106667 0-8.106667 8.106667l0 55.893333q0 8.106667 8.106667 8.106667ZM320 419.84m8.106667 0l583.68 0q8.106667 0 8.106666-8.106667l0-55.893333q0-8.106667-8.106666-8.106667l-583.68 0q-8.106667 0-8.106667 8.106667l0 55.893333q0 8.106667 8.106667 8.106667Z"  horiz-adv-x="1024" />
      
      <glyph glyph-name="search" unicode="&#59051;" d="M917.333333 25.600000000000023L768 174.93333299999995c55.466667 64 85.333333 149.333333 85.333333 238.933334 0 204.8-166.4 375.466667-375.466666 375.466666-204.8 0-375.466667-166.4-375.466667-375.466666 0-204.8 166.4-375.466667 375.466667-375.466667 89.6 0 174.933333 34.133333 238.933333 89.6l149.333333-153.6 51.2 51.2z m-435.2 81.066667c-170.666667 0-307.2 136.533333-307.2 307.2C170.666667 584.5333330000001 311.466667 725.333333 482.133333 725.333333s307.2-136.533333 307.2-307.2c0-174.933333-136.533333-311.466667-307.2-311.466666z"  horiz-adv-x="1024" />
      
    </font>
</defs>
</svg>
